» » Problem z montowaniem obrazów BIN/CUE

Problem z montowaniem obrazów BIN/CUE

Problem z montowaniem obrazów BIN/CUE

Czasami zdarza sie sytuacja, że obraz płyty nie chce sie poprawnie zamontować w programie Daemon Tools.
Problem ten dotyczy w szczególności obrazów .BIN / .CUE.
Wyświetla nam sie wówczas mniej więcej tego typu komunikat:

"Nie można zamontować obrazu. Plik nie jest dostępny."

Cały problem tkwi w tym, że plik .BIN jest zależny od pliku .CUE.
Oczywiście nie zawsze ten problem występuje.
Są przypadki, że wystarczy zamontować plik .BIN i wszystko działa bez problemu.
Ale są też przypadki, że montowanie obrazu kończy sie niepowodzeniem i tutaj właśnie zajmiemy sie tym problemem.

Pierwsze co musimy zrobić to pobrać ten mały programik:



Notepad++


Po pobraniu i zainstalowaniu tego programu przechodzimy do działania.
Wchodzimy w folder z naszą grą, której nie możemy zamontować.
Następnie plik .CUE otwieramy za pomocą programu, który właśnie pobraliśmy.
Zawartość tego pliku powinna wyglądać mniej więcej tak:


FILE "nazwa pliku bin" BINARY
TRACK 01 MODE1/2352
INDEX 01 00:00:00

Interesuje nas pierwszy wiersz.
W polu "nazwa pliku bin" wpisujemy dokładną nazwe pliku .BIN tej samej gry.
Czyli przykładowo, jeśli mamy gre Ski Region Simulator 2012 i plik .BIN ma nazwe Ski.Region.Simulator.2012.bin to zawartość pliku Ski.Region.Simulator.2012.cue powinna wyglądać tak:


FILE "Ski.Region.Simulator.2012.bin" BINARY
TRACK 01 MODE1/2352
INDEX 01 00:00:00

Jeśli plik .BIN ma nazwe MyszZjadlaKota.bin to zawartość pliku Ski.Region.Simulator.2012.cue powinna wyglądać tak:

FILE "MyszZjadlaKota.bin" BINARY
TRACK 01 MODE1/2352
INDEX 01 00:00:00

Nie może być żadnej pomyłki.
Choćby jeden niechciany znak lub spacja w nazwie spowodują problem z montowaniem obrazu.
Reszty linijek nie dotykamy.
Jeśli więc jesteśmy już pewni, iż wpisaliśmy poprawną nazwe pliku, zamykamy program zatwierdzając zmiany.
I teraz już możemy zamontować nasz plik .CUE w programie Daemon Tools.

Poradnik wykonał XGAMEBOXES.




Pobierz Daemon Tools
Najnowsze składniki do gier: POBIERZ
Pełna Wersja Pobierz Za Darmo Free Download PC Game Setup Windows Google Cracked Full Complete Repack Crack Youtube Pobierz Za Darmo Gre Na Komputer Patch Fix Addons Addon Mapy Dodatkowe Mods Symulator Farmy 2017 Trackmania Turbo The Escapists The Forest Punch Club FIFA 16 FIFA 17 (2016) (2015) Gothic 5 GTA 6 Spintires PES 17 Tzar NFS LEGO Filmy Movies Lektor PL Dubbing PL Kino Świat Polska ISO Full Version Download Direct Links Linki do pełnyh wersji gier Skąd pobierać Dodatki do gier Mody do gier Spolszczenia Instalki Klucze Opinie Najnowsza wersja Za darmo Do pobrania Klucz Key Keys Serial Serials Darmowe pobieranie Najnowsze Wersje Online Security Antywirusy Programy Android Cleaunup Safe Zone Premium Poradnik Poradniki Mega Gra PC Gry na PC Cheats Trainer Spolszczenie Ściąganie ściągnij Skąd pobrać Licencja Test Cena Dodatki DLC Dodatkowa zawartość Crysis 4 PS 4.5 Pobierać Jak Gdzie Obrazy ISO Obraz Pełna Wersja Survival Horror GTA 5 Grand Theft Auto V Wiki Counter Strike GO Global Offensive CS GO Rust Dayz Fallout 4 Witcher 3 Star Wars Battlefront Minecraft Story Mode Tom Clancys Division Need for Speed 2016 Far Cry 4 2015 Walking Dead DayZ Mortal Kombat download pełna wersja download pełna wersja pc download pełna wersja za darmo pełna wersja download pełna wersja do pobrania pc pobierz za darmo pełna wersja



Komentarze (3)


Avatar
Ziomek Pl
13 Styczeń 2016 14:12
nie dziala ja tege nie mam
 
Avatar
admin
14 Styczeń 2016 11:58
Cytat: Ziomek Pl
nie dziala ja tege nie mam


A co masz?
 
Avatar
TheSims11260
11 Sierpień 2016 08:32
działa, dzięki, można użyć też zwykłego notatnika
 






Informacja

Tylko zarejestrowani użytkownicy mogą dodawać komentarze.